<?xml version="1.0" standalone="no"?>
<!DOCTYPE svg PUBLIC "-//W3C//DTD SVG 1.1//EN" "http://www.w3.org/Graphics/SVG/1.1/DTD/svg11.dtd" >
<svg xmlns="http://www.w3.org/2000/svg" xmlns:xlink="http://www.w3.org/1999/xlink" version="1.1">
<metadata></metadata>
<defs>
<font id="karlabold" horiz-adv-x="622" >
<font-face units-per-em="2048" ascent="1638" descent="-410" />
<missing-glyph horiz-adv-x="518" />
<glyph horiz-adv-x="0" />
<glyph unicode="&#xd;" horiz-adv-x="1206" />
<glyph unicode=" "  horiz-adv-x="518" />
<glyph unicode="&#x09;" horiz-adv-x="518" />
<glyph unicode="&#xa0;" horiz-adv-x="518" />
<glyph unicode="!" horiz-adv-x="600" d="M139 141.5q0 69.5 47 116.5t121 47t123 -47t49 -116.5t-49 -114.5t-123 -45t-121 45t-47 114.5zM176 1360h262l-28 -911h-207z" />
<glyph unicode="&#x22;" horiz-adv-x="784" d="M66 1405h241l-33 -487h-178zM477 1405h242l-33 -487h-178z" />
<glyph unicode="#" horiz-adv-x="1388" d="M117 336l14 158h191l34 323h-190l16 160h191l28 264h228l-29 -264h279l28 264h228l-29 -264h192l-18 -160h-190l-35 -323h192l-16 -158h-193l-28 -268h-228l29 268h-279l-28 -268h-228l29 268h-188zM549 494h278l35 323h-278z" />
<glyph unicode="$" horiz-adv-x="1411" d="M133 416h240q0 -98 63.5 -149.5t184.5 -65.5v397l-103 35q-172 57 -266 138t-94 226.5t117.5 242.5t345.5 114v155h172v-157q199 -20 303 -123t133 -266h-240q-10 61 -60 109t-136 67v-373l180 -64q154 -53 229.5 -134t75.5 -214q0 -145 -119 -252q-131 -113 -366 -129 v-180h-172v184q-213 20 -347 127q-141 115 -141 312zM422 989.5q0 -57.5 32.5 -91.5t104.5 -58l62 -25v330q-99 -12 -149 -55t-50 -100.5zM793 197q110 10 161.5 55t51.5 106q0 117 -148 172l-65 25v-358z" />
<glyph unicode="%" horiz-adv-x="1566" d="M125 1047q0 152 84 231q80 78 197 78q55 0 106 -19.5t90 -58.5q84 -80 84 -231q0 -150 -84 -234q-78 -78 -199 -78q-117 0 -194 78q-84 84 -84 234zM217 0l901 1329h244l-899 -1329h-246zM305 1047q0 -158 98 -158q101 0 101 158q0 156 -101 155q-98 0 -98 -155zM893 285 q0 152 84 231q80 78 197 78t196 -78q84 -80 84 -231q0 -152 -84 -236q-78 -78 -196 -78q-119 0 -197 78q-84 84 -84 236zM1075.5 283.5q-0.5 -156.5 98.5 -156.5q43 0 71.5 36t28.5 121t-28.5 120.5t-71.5 35.5q-98 0 -98.5 -156.5z" />
<glyph unicode="&#x26;" horiz-adv-x="1976" d="M188 379q0 266 375 326l-33 30q-147 133 -147 293q0 141 117 229q125 94 331 95q199 0 324 -95q115 -88 115 -221t-85 -224t-259 -157l260 -235q125 150 215 375l164 -90q-90 -256 -226 -424l35 -31q37 -33 70 -49.5t81 -16.5t82.5 36t39.5 116h219q-4 -168 -83 -266.5 t-235 -98.5q-98 0 -181 39t-175 123q-205 -162 -455 -162q-229 0 -389 117q-160 119 -160 291zM455 393q0 -86 74.5 -144.5t209.5 -58.5q156 0 293 91l-332 301q-246 -35 -245 -189zM649 993q0 -90 96 -174l48 -43q110 47 160.5 100.5t50.5 120t-47.5 106.5t-131.5 40 t-130 -44t-46 -106z" />
<glyph unicode="'" horiz-adv-x="368" d="M63 1386h242l-33 -487h-178z" />
<glyph unicode="(" horiz-adv-x="819" d="M150 651q0 516 428 893l174 -127q-176 -184 -264.5 -369.5t-88.5 -396.5t88 -394t265 -368l-174 -131q-428 381 -428 893z" />
<glyph unicode=")" horiz-adv-x="819" d="M66 -111q178 184 266 367.5t88 394.5t-89 396.5t-265 369.5l176 127q428 -381 428 -893q0 -508 -428 -893z" />
<glyph unicode="*" horiz-adv-x="837" d="M102 1157l62 143l203 -102l-25 244h164l-25 -244l203 107l61 -146l-223 -76l176 -168l-120 -104l-152 207l-156 -207l-116 104l176 166z" />
<glyph unicode="+" horiz-adv-x="1114" d="M37 397v211h399v398h242v-398h399v-211h-399v-397h-242v397h-399z" />
<glyph unicode="," horiz-adv-x="518" d="M49 -188q68 35 120 77.5t69 100.5q-58 10 -98 46t-40 96.5t47.5 103.5t129 43t133 -63.5t51.5 -156.5q0 -150 -135 -272q-43 -39 -97 -66z" />
<glyph unicode="-" horiz-adv-x="763" d="M94 512v211h576v-211h-576z" />
<glyph unicode="." horiz-adv-x="440" d="M49 141.5q0 69.5 47 116.5t121 47t123 -47t49 -116.5t-49 -114.5t-123 -45t-121 45t-47 114.5z" />
<glyph unicode="/" horiz-adv-x="966" d="M109 -166l526 1692h248l-529 -1692h-245z" />
<glyph unicode="0" horiz-adv-x="1296" d="M96 664q0 344 154 522q145 170 397 170q123 0 224.5 -42t172.5 -128q156 -182 156 -522t-156 -523q-143 -170 -395 -170q-254 0 -399 170q-154 178 -154 523zM346 664q0 -229 79 -349t223.5 -120t223 119.5t78.5 349.5q0 229 -78.5 351t-223 122t-223.5 -122t-79 -351z " />
<glyph unicode="1" horiz-adv-x="731" d="M86 997v232q154 23 270 108h183v-1337h-242v1049q-104 -51 -211 -52z" />
<glyph unicode="2" horiz-adv-x="1239" d="M123 0v227q0 240 170 348q57 37 133 66l272 104q90 35 132 87.5t42 130.5t-55 130t-157.5 52t-169 -49t-76.5 -146h-269q4 195 150 305q133 100 358 101q207 0 342 -111q137 -115 137.5 -280.5t-82.5 -265t-257 -167.5l-277 -106q-80 -31 -115.5 -69t-35.5 -97v-39h759 v-221h-1001z" />
<glyph unicode="3" horiz-adv-x="1273" d="M90 418h258q6 -104 85 -163.5t206 -59.5t197.5 56t70.5 143t-64.5 136.5t-203.5 49.5h-176v190h151q117 0 182.5 50t65.5 132t-56 133.5t-173 51.5q-223 0 -260 -170h-254q20 197 160 297q131 92 344 92q219 0 356 -103q143 -104 143 -268q0 -102 -55 -177t-164 -112 q121 -41 193.5 -121.5t72.5 -185t-37.5 -178.5t-107.5 -127q-147 -113 -383 -113q-225 0 -379 115q-172 125 -172 332z" />
<glyph unicode="4" horiz-adv-x="1218" d="M45 295v182l680 866h233v-841h232v-207h-232v-295h-239v295h-674zM332 477h399v508z" />
<glyph unicode="5" horiz-adv-x="1191" d="M117 397h248q0 -104 69.5 -153t178 -49t179 70.5t70.5 176.5q0 203 -274 203h-406l62 684h796v-221h-563l-28 -299q111 18 210 18q207 0 330 -99t123 -286q0 -203 -137 -333q-145 -137 -367 -138q-219 0 -350 111q-137 115 -141 315z" />
<glyph unicode="6" horiz-adv-x="1243" d="M96 641q0 340 158 530q154 184 418 185q201 0 323 -107q125 -109 133 -284h-258q-10 80 -57 126t-130 46t-145.5 -36t-107.5 -104q-90 -139 -90 -376q0 -88 6 -134q23 176 133 258q96 70 240 70q184 0 305 -119q119 -115 119 -303t-133 -305t-348 -117q-250 0 -408 189 q-158 188 -158 481zM430 403q0 -96 66.5 -152t164 -56t165 56t67.5 152t-70 158q-63 55 -161.5 55t-165 -58t-66.5 -155z" />
<glyph unicode="7" horiz-adv-x="1019" d="M49 1096v233h934v-231l-567 -1098h-326l608 1096h-649z" />
<glyph unicode="8" horiz-adv-x="1325" d="M100 358q0 125 87 202t223 93q-178 86 -242 224q-23 51 -23 116q0 168 134.5 265.5t367 97.5t382 -107.5t149.5 -273.5q0 -100 -69 -179t-198 -102q170 -68 236 -137q78 -82 78 -205q0 -170 -148 -274q-154 -106 -415 -107q-252 0 -408 111q-154 106 -154 276zM350.5 379 q-0.5 -41 24 -76t67.5 -59q82 -49 230.5 -49t225.5 39.5t77 98t-38 94.5t-103 62l-213 80q-186 -12 -252 -118q-18 -31 -18.5 -72zM395 974q0 -77 135 -132l154 -60q98 0 172 49q72 49 72 129t-74 128.5t-192 48.5q-115 0 -191 -43t-76 -120z" />
<glyph unicode="9" horiz-adv-x="1249" d="M109 934q0 188 133 305t346 117q242 0 403 -185q164 -188 164 -485q0 -514 -307 -666q-102 -49 -222 -49t-209 31t-155 86q-139 117 -139 305h252q4 -92 66.5 -145t158.5 -53q311 0 311 512q0 55 -8 120q-27 -160 -133 -241q-94 -72 -240 -72q-186 0 -303.5 118 t-117.5 302zM358 922.5q0 -99.5 67 -154.5t165 -55q96 0 164 57q68 61 67 154q0 94 -67 153q-66 57 -164 57.5t-165 -56t-67 -156z" />
<glyph unicode=":" horiz-adv-x="552" d="M104 176q0 70 47.5 117t120.5 47q74 0 123 -47t49 -117t-49 -115t-123 -45q-73 0 -120.5 45t-47.5 115zM104 784.5q0 69.5 47.5 116.5t120.5 47q74 0 123 -47t49 -116.5t-49 -114.5t-123 -45q-73 0 -120.5 45t-47.5 114.5z" />
<glyph unicode=";" horiz-adv-x="630" d="M111 -188q68 35 120 77.5t68 100.5q-57 10 -97 46t-40 96.5t47 103.5t129 43t133 -63.5t51 -156.5q0 -150 -135 -272q-43 -39 -96 -66zM174 784.5q0 69.5 47 116.5t121 47t123 -47t49 -116.5t-49 -114.5t-123 -45t-121 45t-47 114.5z" />
<glyph unicode="&#x3c;" horiz-adv-x="1028" d="M92 551v219l684 494l160 -185l-596 -420l596 -417l-160 -185z" />
<glyph unicode="=" horiz-adv-x="1036" d="M162 195v211h712v-211h-712zM162 627v209h712v-209h-712z" />
<glyph unicode="&#x3e;" horiz-adv-x="1028" d="M92 242l594 417l-594 420l160 185l684 -494v-219l-684 -494z" />
<glyph unicode="?" horiz-adv-x="1058" d="M49 963q10 178 131 285.5t339 107.5t346 -106.5t128 -264.5q0 -109 -53 -181.5t-168 -129.5q-96 -49 -126 -84t-38 -64.5t-8 -68.5v-60h-242v82q0 184 111 262q39 29 114.5 68t109.5 79t34 102.5t-51 104.5t-151.5 42t-158 -48.5t-65.5 -125.5h-252zM317 133 q0 70 46.5 115t121 45t123.5 -45t49 -115t-49 -116t-123.5 -46t-121 46t-46.5 116z" />
<glyph unicode="@" horiz-adv-x="2103" d="M137 441.5q0 195.5 76 366.5t211 293t320.5 188.5t389 66.5t361.5 -58.5t269.5 -161t173 -240.5t61.5 -287.5t-43 -259t-111.5 -184.5t-158 -114t-184.5 -39t-156.5 36t-79.5 102l-13 32q-41 -78 -99 -124t-144 -46t-146.5 29t-107.5 78q-104 113 -105 274q0 211 148 361 q143 147 346 147q135 0 216 -81t81 -245v-268q0 -104 71 -104q33 0 75 21.5t79 70.5q88 115 88 305q0 238 -158 383q-170 156 -450 156q-338 0 -553 -209q-213 -205 -213 -516q0 -301 203 -475q213 -186 581 -187v-198q-233 0 -422.5 68.5t-324.5 186t-208 277.5t-73 355.5z M870 397q0 -92 48.5 -140t119.5 -48q72 0 120 40t89 120v204q0 63 -23.5 102.5t-76.5 39.5t-100.5 -21.5t-85.5 -62.5q-90 -98 -91 -234z" />
<glyph unicode="A" horiz-adv-x="1282" d="M45 0l453 1329h303l436 -1329h-256l-92 287h-494l-94 -287h-256zM457 469h372l-184 571z" />
<glyph unicode="B" horiz-adv-x="1327" d="M190 0v1329h537q221 0 342 -104q115 -96 115 -248q0 -113 -62.5 -192.5t-175.5 -112.5q113 -23 186.5 -101.5t73.5 -201.5q0 -246 -243 -336q-92 -33 -234 -33h-539zM432 211h291q117 0 169 47t52 125t-54 126t-167 48h-291v-346zM432 768h285q109 0 164 47t55 128 t-54.5 129t-162.5 48h-287v-352z" />
<glyph unicode="C" horiz-adv-x="1298" d="M96 668q0 328 162 512q156 176 410 176q123 0 213 -30t155 -83q129 -104 168 -293l-258 -47q-33 104 -101.5 169t-170.5 65q-139 0 -225 -117q-93 -128 -93 -354q0 -224 82 -348q82 -126 223.5 -125.5t213 69t71.5 176.5h260q0 -223 -142 -345t-390 -122q-264 0 -420 185 q-158 188 -158 512z" />
<glyph unicode="D" horiz-adv-x="1404" d="M188 0v1329h433q303 0 489 -180q188 -180 188 -485q0 -303 -188 -484q-186 -180 -489 -180h-433zM432 219h189q188 0 305 127q110 122 110 315q0 202 -110 324q-115 125 -305 125h-189v-891z" />
<glyph unicode="E" horiz-adv-x="1200" d="M188 0v1329h856v-209h-614v-350h576v-209h-576v-350h614v-211h-856z" />
<glyph unicode="F" horiz-adv-x="1120" d="M190 0v1329h838v-209h-596v-350h545v-207h-545v-563h-242z" />
<glyph unicode="G" horiz-adv-x="1386" d="M96 657q0 319 180 512q174 186 449 187q186 0 312 -81t198 -255l-248 -57q-109 174 -274 174q-152 0 -252 -129q-104 -131 -105 -351q0 -207 95 -335q92 -127 245 -127q131 0 215 84q86 86 86 235v8l-299 6v156h531v-684h-197l-26 211q-86 -240 -330 -240 q-250 0 -412 189q-168 195 -168 497z" />
<glyph unicode="H" horiz-adv-x="1445" d="M190 0v1329h242v-555h580v555h241v-1329h-241v563h-580v-563h-242z" />
<glyph unicode="I" d="M190 0v1329h242v-1329h-242z" />
<glyph unicode="J" horiz-adv-x="909" d="M33 55v242q158 -90 305 -90q88 0 128 51t40 156v915h244v-915q0 -229 -111 -342q-98 -100 -270 -100q-1 -1 -2 -1q-171 0 -334 84z" />
<glyph unicode="K" horiz-adv-x="1339" d="M190 0v1329h244v-547l524 547h332l-585 -598l624 -731h-313l-473 563l-109 -110v-453h-244z" />
<glyph unicode="L" horiz-adv-x="1011" d="M190 0v1329h242v-1118h547v-211h-789z" />
<glyph unicode="M" horiz-adv-x="1789" d="M190 0v1329h347l364 -790l365 790h333v-1329h-243v1010l-377 -865h-158l-389 893v-1038h-242z" />
<glyph unicode="N" horiz-adv-x="1468" d="M186 0v1329h265l585 -942v942h242v-1329h-246l-604 975v-975h-242z" />
<glyph unicode="O" horiz-adv-x="1398" d="M96 666q0 340 168 520q157 170 436 170q133 0 244 -44t191 -130q168 -180 168 -516q0 -338 -168 -523q-160 -172 -437 -172q-274 0 -434 176q-168 182 -168 519zM346 662.5q0 -228.5 96.5 -350.5t258 -122t257 122t95.5 350.5t-95.5 352.5t-257 124t-258 -124 t-96.5 -352.5z" />
<glyph unicode="P" horiz-adv-x="1189" d="M184 0v1329h469q226 0 351.5 -109.5t125.5 -313.5t-125.5 -313.5t-351.5 -109.5h-225v-483h-244zM428 694h225q113 0 170.5 59.5t57.5 152.5t-57.5 153.5t-170.5 60.5h-225v-426z" />
<glyph unicode="Q" horiz-adv-x="1404" d="M96 666q0 340 168 520q158 170 434 170q274 0 437 -174q168 -180 168 -516q0 -276 -106.5 -441.5t-287.5 -222.5l33 -51q49 -76 145 -80q88 0 199 47v-250q-84 -37 -182 -37q-199 0 -336 207l-88 133q-264 4 -422 181q-162 186 -162 514zM346 662.5q0 -228.5 96.5 -350.5 t258 -122t257 122t95.5 350.5t-95.5 352.5t-257 124t-258 -124t-96.5 -352.5z" />
<glyph unicode="R" horiz-adv-x="1318" d="M190 0v1329h492q236 0 367 -112q129 -109 129 -295q0 -141 -80 -241.5t-230 -139.5l357 -541h-316l-293 518h-184v-518h-242zM432 680h227q133 0 201 60.5t68 159.5t-61.5 159.5t-184.5 60.5h-250v-440z" />
<glyph unicode="S" horiz-adv-x="1306" d="M133 416h240q0 -164 170 -207q51 -14 135 -14t155.5 42t71.5 112.5t-39 108.5t-127 70l-264 105q-154 59 -235.5 139t-81.5 221q0 166 129 262q131 101 355 101h2q222 0 344 -104t140 -289h-239q-33 174 -246 174q-104 0 -162.5 -42t-58.5 -101.5t38 -93.5t118 -62 l288 -113q147 -57 227.5 -144t80.5 -219q0 -180 -135.5 -285.5t-385.5 -105.5q-221 0 -358 109q-154 119 -162 336z" />
<glyph unicode="T" horiz-adv-x="1089" d="M12 1120v209h1065v-209h-411v-1120h-242v1120h-412z" />
<glyph unicode="U" horiz-adv-x="1413" d="M170 502v827h242v-827q0 -164 83 -235.5t214 -71.5t214 71.5t83 235.5v827h241v-827q0 -254 -141 -392.5t-397 -138.5t-397.5 138.5t-141.5 392.5z" />
<glyph unicode="V" horiz-adv-x="1243" d="M41 1329h256l324 -1026l327 1026h254l-457 -1329h-253z" />
<glyph unicode="W" horiz-adv-x="1978" d="M41 1329h270l293 -1010l285 922h164l301 -926l311 1014h272l-456 -1329h-254l-250 750l-248 -750h-254z" />
<glyph unicode="X" horiz-adv-x="1400" d="M68 1329h297l335 -479l291 479h293l-448 -663l493 -666h-303l-350 471l-311 -471h-295l469 662z" />
<glyph unicode="Y" horiz-adv-x="1236" d="M33 1329h286l293 -530l308 530h284l-473 -780v-549h-242v549z" />
<glyph unicode="Z" horiz-adv-x="1288" d="M150 0v209l702 897l-702 2v221h1005v-207l-700 -899l700 -2v-221h-1005z" />
<glyph unicode="[" horiz-adv-x="720" d="M190 -289v1907h506v-217h-264v-1471h264v-219h-506z" />
<glyph unicode="\" horiz-adv-x="966" d="M84 1528h246l528 -1692h-248z" />
<glyph unicode="]" horiz-adv-x="688" d="M-8 -70h264v1471h-264v217h506v-1907h-506v219z" />
<glyph unicode="^" horiz-adv-x="1079" d="M41 446l405 789h197l404 -789h-267l-235 504l-238 -504h-266z" />
<glyph unicode="_" horiz-adv-x="1572" d="M113 -113h1349v-211h-1349v211z" />
<glyph unicode="`" horiz-adv-x="729" d="M49 1634l86 209l547 -270l-61 -152z" />
<glyph unicode="a" horiz-adv-x="1196" d="M113 294q0 138 108.5 213t296.5 75q119 0 275 -39v98q0 104 -42 154.5t-137.5 50.5t-146.5 -38t-51 -108h-264q0 170 119.5 246t334.5 76q307 0 398 -215q30 -72 30 -168v-6v-633h-211l-18 133q-96 -162 -295 -162q-193 0 -299 95q-98 90 -98 228zM416 196 q45 -40 144 -40t164 66.5t69 166.5q-121 33 -226 33q-196 0 -196 -130q0 -56 45 -96z" />
<glyph unicode="b" horiz-adv-x="1257" d="M190 0v1405h242v-535q94 152 281.5 152t313.5 -143.5t126 -377t-133 -384.5q-129 -145 -322 -146q-92 0 -168.5 49.5t-121.5 151.5l-60 -172h-158zM432 428q4 -104 76 -172q68 -66 165 -66t166.5 85t69.5 224.5t-68.5 222.5t-171 83t-170 -67.5t-67.5 -178.5v-131z" />
<glyph unicode="c" horiz-adv-x="1085" d="M96 498q0 242 142 387q132 137 331 137q94 0 169 -32t126 -83q102 -98 121 -248l-244 -6q-16 66 -60 109t-101.5 43t-98.5 -17.5t-71 -54.5q-70 -86 -70 -237.5t65.5 -228.5t158.5 -77t135 44.5t42 119.5h244q0 -164 -108 -272q-111 -111 -310 -111q-197 0 -329 144 q-141 154 -142 383z" />
<glyph unicode="d" horiz-adv-x="1257" d="M104 504q0 232 127 377q125 141 311.5 141t280.5 -150v533h244v-1405h-199l-28 154q-92 -182 -283 -183q-190 0 -319 146q-134 153 -134 387zM348 499.5q0 -139.5 69.5 -224.5t176.5 -85q88 0 158 70q72 72 71 180v129q-4 106 -71 174q-61 61 -164 61q-1 0 -1 1 q-103 0 -171 -83t-68 -222.5z" />
<glyph unicode="e" horiz-adv-x="1085" d="M96 498q0 240 137 385q131 139 330 139q207 0 322 -145q51 -66 76.5 -152t25.5 -157.5t-8 -129.5h-643q4 -121 59.5 -196.5t167.5 -75.5q150 0 178 131h244q-25 -150 -137 -236q-117 -90 -285 -90q-197 0 -330 144q-137 150 -137 383zM338 592h424q0 162 -103 217 q-39 20 -94 20q-102 0 -159.5 -66.5t-67.5 -170.5z" />
<glyph unicode="f" horiz-adv-x="749" d="M82 834v161h147v117q0 154 90 236q81 73 210 73h3q84 0 207 -24l-47 -187q-57 20 -103 20q-1 1 -2 1q-45 0 -79 -25q-35 -26 -35 -96v-115h182v-161h-182v-834h-244v834h-147z" />
<glyph unicode="g" horiz-adv-x="1191" d="M31 -178q0 92 56 146.5t149 68.5q-121 74 -121 182q0 72 44.5 120.5t116.5 68.5q-120 101 -120 253q0 165 127 265q123 96 281.5 96t264.5 -59q12 117 101 188q86 72 203 72l-13 -232q-176 0 -182 -117q76 -94 76 -192t-35 -164.5t-94 -111.5q-123 -98 -299 -99 q-100 0 -183 31q-81 -25 -81 -96q0 -94 155 -95h334q340 0 340 -237q0 -80 -40 -157t-116 -136q-168 -131 -422 -131q-246 0 -399 100q-143 96 -143 236zM268 -168q0 -70 81 -112t191.5 -42t173 18.5t105.5 49.5q92 61 92 148q0 37 -25.5 60t-74.5 23h-350 q-193 -8 -193 -145zM395 667q0 -83 49.5 -136.5t143.5 -53.5t140 53.5t46 136.5t-46 135t-140 52t-143.5 -52t-49.5 -135z" />
<glyph unicode="h" horiz-adv-x="1275" d="M190 0v1405h242v-571q102 188 299 188t290 -121t93 -319v-582h-242v582q0 111 -53 167t-149.5 56t-165 -86t-72.5 -258v-461h-242z" />
<glyph unicode="i" horiz-adv-x="671" d="M182 1317q0 66 39 103.5t111 37.5q70 0 109.5 -38t39.5 -103q0 -66 -40 -103.5t-109 -37.5q-72 0 -111 37.5t-39 103.5zM211 0v997h242v-997h-242z" />
<glyph unicode="j" horiz-adv-x="686" d="M-156 -451l4 209q123 -61 211 -61t127 42t39 146v1114h242v-1118q0 -213 -89 -304t-231.5 -91t-302.5 63zM195 1317q0 66 39.5 103.5t110.5 37.5t110 -38t39 -103q0 -66 -39 -103.5t-110 -37.5t-110.5 37.5t-39.5 103.5z" />
<glyph unicode="k" horiz-adv-x="1177" d="M190 0v1405h242v-760l393 350h328l-440 -368l465 -627h-295l-340 485l-111 -92v-393h-242z" />
<glyph unicode="l" d="M190 0v1405h242v-1405h-242z" />
<glyph unicode="m" horiz-adv-x="1943" d="M190 0v995h211l27 -172q98 199 315 199q125 0 208 -57.5t124 -157.5q96 215 338 215q178 0 277 -121q94 -115 94 -319v-582h-244v582q0 111 -53 167t-149.5 56t-158 -84t-65.5 -254v-467h-242v582q0 111 -53 167t-149.5 56t-165 -86t-72.5 -258v-461h-242z" />
<glyph unicode="n" horiz-adv-x="1275" d="M190 0v995h211l27 -172q98 199 315 199q184 0 277.5 -121t93.5 -319v-582h-242v582q0 111 -53 167t-149.5 56t-165 -86t-72.5 -258v-461h-242z" />
<glyph unicode="o" horiz-adv-x="1159" d="M96 496q0 256 142 397q129 129 344 129q100 0 188 -32t152 -97q141 -143 141 -397q0 -250 -141 -394q-127 -131 -340 -131t-344 131q-141 141 -142 394zM340 497.5q0 -157.5 62.5 -236.5t170.5 -79q109 0 178.5 79t69.5 236.5t-61.5 236.5t-171 79t-179 -79t-69.5 -236.5 z" />
<glyph unicode="p" horiz-adv-x="1249" d="M190 -485v1480h199l23 -135q94 162 286 162q184 0 316 -139q139 -147 139 -385q0 -240 -141 -387q-131 -139 -314 -139q0 -1 -1 -1q-181 0 -265 109v-565h-242zM432 401q0 -96 68 -155q63 -56 155 -56q43 0 89.5 18.5t82.5 57.5q82 86 82 230.5t-70.5 226.5t-172 82 t-166 -58.5t-68.5 -166.5v-179z" />
<glyph unicode="q" horiz-adv-x="1249" d="M96 498q0 236 137 385q129 139 316 139q92 0 171 -44t128 -136l53 153h158v-1149q0 -88 21.5 -116.5t48 -42t65.5 -25.5l-70 -176q-168 41 -238.5 131t-70.5 248v264q-74 -158 -254 -158q-193 0 -323 140q-141 147 -142 387zM340 498q0 -145 82 -232q72 -76 174 -76 q84 0 147 52q68 57 72 149v178q0 113 -65.5 174.5t-167 61.5t-172 -82t-70.5 -225z" />
<glyph unicode="r" horiz-adv-x="851" d="M190 0v997h242v-198q90 215 270 215q35 0 89 -15l-5 -241q-57 12 -112 12q-242 0 -242 -334v-436h-242z" />
<glyph unicode="s" horiz-adv-x="1079" d="M100 303h226q4 -141 206 -141q78 0 128.5 33.5t50.5 78.5t-31 70t-96 45l-217 78q-242 84 -242 274q0 127 113.5 204t305 77t295 -84t107.5 -211h-227q-4 49 -47 78t-123 29t-124 -32t-44 -73q0 -72 121 -106l235 -88q117 -39 179.5 -99.5t62.5 -156.5q0 -123 -117 -213 q-122 -94 -320 -94q-1 0 -2 -1q-197 0 -317 87q-121 87 -123 245z" />
<glyph unicode="t" horiz-adv-x="808" d="M66 834v161h139v262h241v-262h271v-161h-271v-549q0 -123 117 -123q59 0 154 33l35 -170q-135 -53 -213 -53q-2 0 -4 -1q-75 1 -133 19t-103 55q-94 84 -94 231v558h-139z" />
<glyph unicode="u" horiz-adv-x="1284" d="M170 362v635h242v-610q0 -98 47 -146t115.5 -48t115.5 19t82 58q76 88 80 236v491h242v-997h-242v180q-94 -198 -301 -198h-2q-264 0 -348 206q-31 72 -31 174z" />
<glyph unicode="v" horiz-adv-x="1062" d="M25 995h278l227 -755l230 755h278l-370 -995h-273z" />
<glyph unicode="w" horiz-adv-x="1552" d="M25 995h254l200 -710l191 655h219l190 -657l203 712h242l-328 -995h-238l-184 596l-180 -596h-240z" />
<glyph unicode="x" horiz-adv-x="1134" d="M33 0l387 496l-387 501h297l243 -319l232 319h295l-385 -501l385 -496h-295l-246 319l-229 -319h-297z" />
<glyph unicode="y" horiz-adv-x="1032" d="M0 -236q104 -67 212 -67h3q72 0 118 57.5t75 149.5l30 96l-399 995h274l240 -716l209 716h246l-381 -1175q-59 -178 -144.5 -256t-216.5 -78q-133 0 -266 65v213z" />
<glyph unicode="z" horiz-adv-x="1013" d="M117 0v197l516 602h-516v196h782v-196l-500 -602h500v-197h-782z" />
<glyph unicode="{" horiz-adv-x="800" d="M145 532v244h52q41 0 54 32t13 118v188q0 367 289 475q100 39 240 39v-219q-152 0 -220.5 -72.5t-68.5 -226.5v-197q0 -98 -38 -161.5t-97 -92.5v-10q59 -29 97 -92t38 -162v-196q0 -154 68.5 -226.5t220.5 -72.5v-219q-268 0 -404 143q-125 133 -125 373v186 q0 86 -13 117.5t-54 31.5h-52z" />
<glyph unicode="|" d="M190 -250v1829h242v-1829h-242z" />
<glyph unicode="}" horiz-adv-x="800" d="M8 -100q152 0 220.5 72.5t68.5 226.5v196q0 98 38 162t97 92v10q-59 29 -97 92.5t-38 161.5v197q0 154 -68.5 226.5t-220.5 72.5v219q268 0 406 -145q123 -131 123 -369v-188q0 -86 13 -118t54 -32h51v-244h-51q-41 0 -54 -31.5t-13 -117.5v-186q0 -369 -289 -480 q-100 -37 -240 -36v219z" />
<glyph unicode="~" horiz-adv-x="1167" d="M117 487q35 133 97 210t165 77q70 0 182 -43q176 -68 225 -67q84 0 134 114l131 -84q-82 -260 -283 -260q-68 0 -209 58q-76 27 -113.5 39t-68.5 12q-78 0 -131 -125z" />
<glyph unicode="&#xa3;" horiz-adv-x="1232" d="M45 0v219h66q76 0 106.5 43t30.5 135v178h-170v162h170v172q0 221 114.5 334t303.5 113q344 0 393 -359h-238q-10 68 -51 104t-111.5 36t-120 -55.5t-49.5 -172.5v-172h351v-162h-351v-161q0 -133 -73 -195h278q102 0 146.5 38t54.5 120h264q-8 -188 -110 -279 q-115 -98 -353 -98h-651z" />
<glyph unicode="&#xa8;" horiz-adv-x="782" d="M49 1711q0 58 40 97t104 39q63 0 104 -39t41 -97t-41 -96t-104 -38q-64 0 -104 38t-40 96zM444 1712q0 59 41 98t103.5 39t103.5 -38.5t41 -98.5q0 -59 -41 -96t-103.5 -37t-103.5 37t-41 96z" />
<glyph unicode="&#xad;" horiz-adv-x="763" d="M94 512v211h576v-211h-576z" />
<glyph unicode="&#xb4;" horiz-adv-x="729" d="M47 1573l547 270l86 -209l-571 -213z" />
<glyph unicode="&#xc0;" horiz-adv-x="1282" d="M45 0l453 1329h303l436 -1329h-256l-92 287h-494l-94 -287h-256zM334 1634l86 209l547 -270l-62 -152zM457 469h372l-184 571z" />
<glyph unicode="&#xc1;" horiz-adv-x="1282" d="M45 0l453 1329h303l436 -1329h-256l-92 287h-494l-94 -287h-256zM332 1573l547 270l86 -209l-572 -213zM457 469h372l-184 571z" />
<glyph unicode="&#xc2;" horiz-adv-x="1282" d="M45 0l453 1329h303l436 -1329h-256l-92 287h-494l-94 -287h-256zM219 1540l428 330l426 -330l-153 -121l-273 207l-274 -207zM457 469h372l-184 571z" />
<glyph unicode="&#xc3;" horiz-adv-x="1282" d="M45 0l453 1329h303l436 -1329h-256l-92 287h-494l-94 -287h-256zM293 1554q25 125 83 194t136 69q55 0 129 -38t99.5 -50.5t50.5 -12.5q66 0 108 101l102 -68q-23 -111 -81 -181.5t-123 -70.5q-37 0 -73 14.5t-89 40.5q-92 47 -125 47q-72 0 -121 -102zM457 469h372 l-184 571z" />
<glyph unicode="&#xc4;" horiz-adv-x="1282" d="M45 0l453 1329h303l436 -1329h-256l-92 287h-494l-94 -287h-256zM305 1668q0 58 40 97t104 39q63 0 104 -39t41 -97t-41 -96t-104 -38q-64 0 -104 38t-40 96zM457 469h372l-184 571zM700 1669q0 59 41 98t103.5 39t103.5 -38.5t41 -98.5q0 -59 -41 -96t-103.5 -37 t-103.5 37t-41 96z" />
<glyph unicode="&#xc8;" horiz-adv-x="1204" d="M188 0v1329h856v-209h-614v-350h576v-209h-576v-350h614v-211h-856zM303 1634l86 209l547 -270l-62 -152z" />
<glyph unicode="&#xc9;" horiz-adv-x="1204" d="M188 0h856v211h-614v350h576v209h-576v350h614v209h-856v-1329zM301 1573l547 270l86 -209l-572 -213z" />
<glyph unicode="&#xca;" horiz-adv-x="1204" d="M209 0v1329h856v-209h-614v-350h575v-209h-575v-350h614v-211h-856zM211 1540l428 330l426 -330l-154 -121l-272 207l-274 -207z" />
<glyph unicode="&#xcb;" horiz-adv-x="1204" d="M188 0v1329h856v-209h-614v-350h576v-209h-576v-350h614v-211h-856zM276 1668q0 58 40 97t104 39q63 0 104 -39t41 -97t-41 -96t-104 -38q-64 0 -104 38t-40 96zM672 1669q0 59 41 98t103.5 39t103.5 -38.5t41 -98.5q0 -59 -41 -96t-103.5 -37t-103.5 37t-41 96z" />
<glyph unicode="&#xcc;" d="M-2 1634l86 209l547 -270l-62 -152zM190 0v1329h242v-1329h-242z" />
<glyph unicode="&#xcd;" d="M-4 1573l547 270l86 -209l-572 -213zM190 0h242v1329h-242v-1329z" />
<glyph unicode="&#xce;" d="M-115 1540l428 330l426 -330l-153 -121l-273 207l-274 -207zM190 0v1329h242v-1329h-242z" />
<glyph unicode="&#xcf;" d="M-29 1668q0 58 40 97t104 39q63 0 104 -39t41 -97t-41 -96t-104 -38q-64 0 -104 38t-40 96zM190 0v1329h242v-1329h-242zM367 1669q0 59 41 98t103 39t103 -38.5t41 -98.5q0 -59 -41 -96t-103 -37t-103 37t-41 96z" />
<glyph unicode="&#xd1;" horiz-adv-x="1474" d="M186 0h242v975l604 -975h246v1329h-242v-942l-585 942h-265v-1329zM381 1554q25 125 83 194t136 69q55 0 129 -38t99.5 -50.5t50.5 -12.5q66 0 108 101l103 -68q-23 -111 -81.5 -181.5t-123.5 -70.5q-37 0 -73 14.5t-91 40.5q-90 47 -123 47q-72 0 -121 -102z" />
<glyph unicode="&#xd2;" horiz-adv-x="1398" d="M96 666q0 340 168 520q157 170 436 170q133 0 244 -44t191 -130q168 -180 168 -516q0 -338 -168 -523q-160 -172 -437 -172q-274 0 -434 176q-168 182 -168 519zM346 662.5q0 -228.5 96.5 -350.5t258 -122t257 122t95.5 350.5t-95.5 352.5t-257 124t-258 -124 t-96.5 -352.5zM381 1634l86 209l547 -270l-62 -152z" />
<glyph unicode="&#xd3;" horiz-adv-x="1398" d="M96 666q0 -336 168 -519q160 -176 434 -176q276 0 437 172q168 184 168 523q0 336 -168 516q-163 174 -435 174q-135 0 -245.5 -42t-190.5 -128q-168 -180 -168 -520zM346 662.5q0 228.5 96.5 352.5t258 124t257 -124t95.5 -352.5t-95.5 -350.5t-257 -122t-258 122 t-96.5 350.5zM379 1573l547 270l86 -209l-572 -213z" />
<glyph unicode="&#xd4;" horiz-adv-x="1398" d="M96 666q0 340 168 520q157 170 436 170q133 0 244 -44t191 -130q168 -180 168 -516q0 -338 -168 -523q-160 -172 -437 -172q-274 0 -434 176q-168 182 -168 519zM270 1540l428 330l426 -330l-153 -121l-273 207l-274 -207zM346 662.5q0 -228.5 96.5 -350.5t258 -122 t257 122t95.5 350.5t-95.5 352.5t-257 124t-258 -124t-96.5 -352.5z" />
<glyph unicode="&#xd5;" horiz-adv-x="1398" d="M96 666q0 -336 168 -519q160 -176 434 -176q276 0 437 172q168 184 168 523q0 336 -168 516q-163 174 -435 174q-135 0 -245.5 -42t-190.5 -128q-168 -180 -168 -520zM344 1554q25 125 83 194t136 69q55 0 129 -38t99.5 -50.5t50.5 -12.5q66 0 108 101l103 -68 q-23 -111 -81.5 -181.5t-123.5 -70.5q-37 0 -73 14.5t-91 40.5q-90 47 -123 47q-72 0 -121 -102zM346 662.5q0 228.5 96.5 352.5t258 124t257 -124t95.5 -352.5t-95.5 -350.5t-257 -122t-258 122t-96.5 350.5z" />
<glyph unicode="&#xd6;" horiz-adv-x="1398" d="M96 666q0 340 168 520q157 170 436 170q133 0 244 -44t191 -130q168 -180 168 -516q0 -338 -168 -523q-160 -172 -437 -172q-274 0 -434 176q-168 182 -168 519zM346 662.5q0 -228.5 96.5 -350.5t258 -122t257 122t95.5 350.5t-95.5 352.5t-257 124t-258 -124 t-96.5 -352.5zM356 1668q0 58 40 97t104 39q63 0 104 -39t41 -97t-41 -96t-104 -38q-64 0 -104 38t-40 96zM752 1669q0 59 41 98t103 39t103 -38.5t41 -98.5q0 -59 -41 -96t-103 -37t-103 37t-41 96z" />
<glyph unicode="&#xd9;" horiz-adv-x="1413" d="M170 502v827h242v-827q0 -164 83 -235.5t214 -71.5t214 71.5t83 235.5v827h241v-827q0 -254 -141 -392.5t-397 -138.5t-397.5 138.5t-141.5 392.5zM391 1634l86 209l547 -270l-61 -152z" />
<glyph unicode="&#xda;" horiz-adv-x="1413" d="M170 502q0 -254 141.5 -392.5t397.5 -138.5t397 138.5t141 392.5v827h-241v-827q0 -164 -83 -235.5t-214 -71.5t-214 71.5t-83 235.5v827h-242v-827zM389 1573l547 270l86 -209l-571 -213z" />
<glyph unicode="&#xdb;" horiz-adv-x="1413" d="M170 502v827h242v-827q0 -164 83 -235.5t214 -71.5t214 71.5t83 235.5v827h241v-827q0 -254 -141 -392.5t-397 -138.5t-397.5 138.5t-141.5 392.5zM281 1540l428 330l426 -330l-154 -121l-272 207l-275 -207z" />
<glyph unicode="&#xdc;" horiz-adv-x="1413" d="M170 502v827h242v-827q0 -164 83 -235.5t214 -71.5t214 71.5t83 235.5v827h241v-827q0 -254 -141 -392.5t-397 -138.5t-397.5 138.5t-141.5 392.5zM369 1668q0 58 40 97t103 39t104 -39t41 -97t-41 -96t-104 -38t-103 38t-40 96zM764 1669q0 59 41 98t103.5 39 t103.5 -38.5t41 -98.5q0 -59 -41 -96t-103.5 -37t-103.5 37t-41 96z" />
<glyph unicode="&#xe0;" horiz-adv-x="1198" d="M113 294q0 138 108.5 213t296.5 75q119 0 275 -39v98q0 104 -42 154.5t-137.5 50.5t-146.5 -38t-51 -108h-264q0 170 119.5 246t334.5 76q307 0 398 -215q31 -74 30 -174v-633h-211l-18 133q-96 -162 -295 -162q-193 0 -299 95q-98 90 -98 228zM293 1356l86 209l547 -271 l-62 -151zM371 291q0 -55 45 -95t144 -40t164 66.5t69 166.5q-121 33 -226 33q-197 0 -196 -131z" />
<glyph unicode="&#xe1;" horiz-adv-x="1198" d="M113 294q0 138 108.5 213t296.5 75q119 0 275 -39v98q0 104 -42 154.5t-137.5 50.5t-146.5 -38t-51 -108h-264q0 170 119.5 246t334.5 76q307 0 398 -215q31 -74 30 -174v-633h-211l-18 133q-96 -162 -295 -162q-193 0 -299 95q-98 90 -98 228zM291 1294l547 271l86 -209 l-572 -213zM371 291q0 -55 45 -95t144 -40t164 66.5t69 166.5q-121 33 -226 33q-197 0 -196 -131z" />
<glyph unicode="&#xe2;" horiz-adv-x="1198" d="M113 294q0 138 108.5 213t296.5 75q119 0 275 -39v98q0 104 -42 154.5t-137.5 50.5t-146.5 -38t-51 -108h-264q0 170 119.5 246t334.5 76q307 0 398 -215q31 -74 30 -174v-633h-211l-18 133q-96 -162 -295 -162q-193 0 -299 95q-98 90 -98 228zM182 1262l428 329 l426 -329l-153 -121l-273 207l-274 -207zM371 291q0 -55 45 -95t144 -40t164 66.5t69 166.5q-121 33 -226 33q-197 0 -196 -131z" />
<glyph unicode="&#xe3;" horiz-adv-x="1198" d="M113 294q0 138 108.5 213t296.5 75q119 0 275 -39v98q0 104 -42 154.5t-137.5 50.5t-146.5 -38t-51 -108h-264q0 170 119.5 246t334.5 76q307 0 398 -215q31 -74 30 -174v-633h-211l-18 133q-96 -162 -295 -162q-193 0 -299 95q-98 90 -98 228zM256 1276q25 125 83 193.5 t136 68.5q55 0 129 -38t99.5 -50t50.5 -12q66 0 108 100l103 -68q-23 -111 -81.5 -181t-123.5 -70q-37 0 -73 14t-89 41q-92 47 -125 47q-72 0 -121 -102zM371 291q0 -55 45 -95t144 -40t164 66.5t69 166.5q-121 33 -226 33q-197 0 -196 -131z" />
<glyph unicode="&#xe4;" horiz-adv-x="1198" d="M113 294q0 138 108.5 213t296.5 75q119 0 275 -39v98q0 104 -42 154.5t-137.5 50.5t-146.5 -38t-51 -108h-264q0 170 119.5 246t334.5 76q307 0 398 -215q31 -74 30 -174v-633h-211l-18 133q-96 -162 -295 -162q-193 0 -299 95q-98 90 -98 228zM268 1389.5 q0 58.5 40 97.5t104 39q63 0 104 -39t41 -97.5t-41 -96.5t-104 -38q-64 0 -104 38t-40 96.5zM371 291q0 -55 45 -95t144 -40t164 66.5t69 166.5q-121 33 -226 33q-197 0 -196 -131zM664 1391q0 59 40.5 98t103 39t103.5 -39t41 -98t-41 -96.5t-103.5 -37.5t-103 37.5 t-40.5 96.5z" />
<glyph unicode="&#xe8;" horiz-adv-x="1085" d="M96 498q0 240 137 385q131 139 330 139q207 0 322 -145q51 -66 76.5 -152t25.5 -157.5t-8 -129.5h-643q4 -121 59.5 -196.5t167.5 -75.5q150 0 178 131h244q-25 -150 -137 -236q-117 -90 -285 -90q-197 0 -330 144q-137 150 -137 383zM229 1376l86 209l547 -270l-61 -152 zM338 592h424q0 162 -103 217q-39 20 -94 20q-102 0 -159.5 -66.5t-67.5 -170.5z" />
<glyph unicode="&#xe9;" horiz-adv-x="1085" d="M96 498q0 -233 137 -383q133 -143 330 -144q168 0 285 90q113 86 137 236h-244q-29 -131 -178 -131q-113 0 -168 75.5t-59 196.5h643q8 57 8 129t-25.5 158t-76.5 152q-115 145 -322 145q-199 0 -330 -139q-137 -145 -137 -385zM227 1315l547 270l86 -209l-571 -213z M338 592q10 104 67.5 170.5t160 66.5t149.5 -66.5t47 -170.5h-424z" />
<glyph unicode="&#xea;" horiz-adv-x="1085" d="M111 498q0 240 137 385q131 139 330 139q207 0 319 -145q53 -66 78.5 -152t25.5 -157.5t-8 -129.5h-643q4 -121 59.5 -196.5t168.5 -75.5q150 0 178 131h243q-25 -150 -137 -236q-117 -90 -284 -90q-197 0 -330 144q-137 150 -137 383zM129 1282l428 330l426 -330 l-154 -121l-272 207l-274 -207zM352 592h424q0 162 -104 217q-37 20 -92 20q-102 0 -160 -66.5t-68 -170.5z" />
<glyph unicode="&#xeb;" horiz-adv-x="1085" d="M96 498q0 240 137 385q131 139 330 139q207 0 322 -145q51 -66 76.5 -152t25.5 -157.5t-8 -129.5h-643q4 -121 59.5 -196.5t167.5 -75.5q150 0 178 131h244q-25 -150 -137 -236q-117 -90 -285 -90q-197 0 -330 144q-137 150 -137 383zM203 1389.5q0 58.5 40 97.5t103 39 t104.5 -39t41.5 -97.5t-41 -96.5t-105 -38q-63 0 -103 38t-40 96.5zM338 592h424q0 162 -103 217q-39 20 -94 20q-102 0 -159.5 -66.5t-67.5 -170.5zM598 1391q0 59 41 98t103.5 39t103.5 -39t41 -98t-41 -96.5t-103.5 -37.5t-103.5 37.5t-41 96.5z" />
<glyph unicode="&#xec;" horiz-adv-x="671" d="M16 1356l86 209l547 -271l-61 -151zM211 0v997h242v-997h-242z" />
<glyph unicode="&#xed;" horiz-adv-x="671" d="M14 1294l547 271l86 -209l-571 -213zM211 0h242v997h-242v-997z" />
<glyph unicode="&#xee;" horiz-adv-x="671" d="M-96 1262l428 329l426 -329l-154 -121l-272 207l-275 -207zM211 0v997h242v-997h-242z" />
<glyph unicode="&#xef;" horiz-adv-x="671" d="M-10 1389.5q0 58.5 40 97.5t103 39t104.5 -39t41.5 -97.5t-41 -96.5t-105 -38q-63 0 -103 38t-40 96.5zM211 0v997h242v-997h-242zM385 1391q0 59 41 98t103.5 39t103.5 -39t41 -98t-41 -96.5t-103.5 -37.5t-103.5 37.5t-41 96.5z" />
<glyph unicode="&#xf1;" horiz-adv-x="1275" d="M190 0h242v461q4 172 72.5 258t165 86t149.5 -56.5t53 -166.5v-582h242v582q0 199 -93.5 319.5t-277.5 120.5q-217 0 -315 -199l-27 172h-211v-995zM289 1276q25 125 83 193.5t136 68.5q55 0 129 -38t99 -50t50 -12q66 0 109 100l102 -68q-23 -111 -81 -181t-123 -70 q-37 0 -73 14t-89 41q-92 47 -125 47q-72 0 -121 -102z" />
<glyph unicode="&#xf2;" horiz-adv-x="1159" d="M96 496q0 256 142 397q129 129 344 129q100 0 188 -32t152 -97q141 -143 141 -397q0 -250 -141 -394q-127 -131 -340 -131t-344 131q-141 141 -142 394zM266 1356l86 209l547 -271l-61 -151zM340 497.5q0 -157.5 62.5 -236.5t170.5 -79q109 0 178.5 79t69.5 236.5 t-61.5 236.5t-171 79t-179 -79t-69.5 -236.5z" />
<glyph unicode="&#xf3;" horiz-adv-x="1159" d="M96 496q0 -252 142 -394q131 -131 344 -131t340 131q141 143 141 394q0 254 -141 397q-127 129 -340 129q-102 0 -190.5 -32t-153.5 -97q-141 -141 -142 -397zM264 1294l547 271l86 -209l-571 -213zM340 497.5q0 157.5 69.5 236.5t179 79t171 -79t61.5 -236.5 t-69.5 -236.5t-178.5 -79t-171 79t-62 236.5z" />
<glyph unicode="&#xf4;" horiz-adv-x="1159" d="M96 496q0 256 142 397q129 129 344 129q100 0 188 -32t152 -97q141 -143 141 -397q0 -250 -141 -394q-127 -131 -340 -131t-344 131q-141 141 -142 394zM154 1262l428 329l426 -329l-154 -121l-272 207l-275 -207zM340 497.5q0 -157.5 62.5 -236.5t170.5 -79 q109 0 178.5 79t69.5 236.5t-61.5 236.5t-171 79t-179 -79t-69.5 -236.5z" />
<glyph unicode="&#xf5;" horiz-adv-x="1159" d="M96 496q0 -252 142 -394q131 -131 344 -131t340 131q141 143 141 394q0 254 -141 397q-127 129 -340 129q-102 0 -190.5 -32t-153.5 -97q-141 -141 -142 -397zM225 1276q25 125 83.5 193.5t135.5 68.5q55 0 129 -38t99.5 -50t50.5 -12q66 0 108 100l103 -68 q-23 -111 -81 -181t-124 -70q-37 0 -72.5 14t-91.5 41q-90 47 -123 47q-72 0 -120 -102zM340 497.5q0 157.5 69.5 236.5t179 79t171 -79t61.5 -236.5t-69.5 -236.5t-178.5 -79t-171 79t-62 236.5z" />
<glyph unicode="&#xf6;" horiz-adv-x="1159" d="M96 496q0 256 142 397q129 129 344 129q100 0 188 -32t152 -97q141 -143 141 -397q0 -250 -141 -394q-127 -131 -340 -131t-344 131q-141 141 -142 394zM240 1389.5q0 58.5 39.5 97.5t103.5 39q63 0 104 -39t41 -97.5t-41 -96.5t-104 -38q-64 0 -103.5 38t-39.5 96.5z M340 497.5q0 -157.5 62.5 -236.5t170.5 -79q109 0 178.5 79t69.5 236.5t-61.5 236.5t-171 79t-179 -79t-69.5 -236.5zM635 1391q0 59 41 98t103.5 39t103.5 -39t41 -98t-41 -96.5t-103.5 -37.5t-103.5 37.5t-41 96.5z" />
<glyph unicode="&#xf9;" horiz-adv-x="1284" d="M170 362v635h242v-610q0 -98 47 -146t115.5 -48t115.5 19t82 58q76 88 80 236v491h242v-997h-242v180q-94 -199 -303 -198q-264 0 -348 206q-31 72 -31 174zM326 1397l86 209l546 -271l-61 -151z" />
<glyph unicode="&#xfa;" horiz-adv-x="1284" d="M170 362q0 -193 109 -292q96 -88 270 -88q209 0 303 198v-180h242v997h-242v-475q0 -158 -78 -248q-70 -82 -169 -81.5t-146 48.5t-47 146v610h-242v-635zM324 1335l546 271l86 -209l-571 -213z" />
<glyph unicode="&#xfb;" horiz-adv-x="1284" d="M170 362v635h242v-610q0 -98 47 -146t115.5 -48t115.5 19t82 58q76 88 80 236v491h242v-997h-242v180q-94 -199 -303 -198q-264 0 -348 206q-31 72 -31 174zM213 1303l428 329l426 -329l-154 -121l-272 207l-274 -207z" />
<glyph unicode="&#xfc;" horiz-adv-x="1284" d="M170 362v635h242v-610q0 -98 47 -146t115.5 -48t115.5 19t82 58q76 88 80 236v491h242v-997h-242v180q-94 -199 -303 -198q-264 0 -348 206q-31 72 -31 174zM299 1389.5q0 58.5 40 97.5t103 39t104.5 -39t41.5 -97.5t-41 -96.5t-105 -38q-63 0 -103 38t-40 96.5z M694 1391q0 59 41 98t103.5 39t103.5 -39t41 -98t-41 -96.5t-103.5 -37.5t-103.5 37.5t-41 96.5z" />
<glyph unicode="&#x2c6;" horiz-adv-x="952" d="M49 1540l428 330l426 -330l-153 -121l-273 207l-274 -207z" />
<glyph unicode="&#x2dc;" horiz-adv-x="806" d="M47 1554q25 125 83 194t136 69q55 0 129 -38t99.5 -50.5t50.5 -12.5q66 0 108 101l103 -68q-23 -111 -81.5 -181.5t-123.5 -70.5q-37 0 -73 14.5t-89 40.5q-92 47 -125 47q-72 0 -121 -102z" />
<glyph unicode="&#x2000;" horiz-adv-x="935" />
<glyph unicode="&#x2001;" horiz-adv-x="1870" />
<glyph unicode="&#x2002;" horiz-adv-x="935" />
<glyph unicode="&#x2003;" horiz-adv-x="1870" />
<glyph unicode="&#x2004;" horiz-adv-x="623" />
<glyph unicode="&#x2005;" horiz-adv-x="467" />
<glyph unicode="&#x2006;" horiz-adv-x="311" />
<glyph unicode="&#x2007;" horiz-adv-x="311" />
<glyph unicode="&#x2008;" horiz-adv-x="233" />
<glyph unicode="&#x2009;" horiz-adv-x="374" />
<glyph unicode="&#x200a;" horiz-adv-x="103" />
<glyph unicode="&#x2010;" horiz-adv-x="763" d="M94 512v211h576v-211h-576z" />
<glyph unicode="&#x2011;" horiz-adv-x="763" d="M94 512v211h576v-211h-576z" />
<glyph unicode="&#x2012;" horiz-adv-x="763" d="M94 512v211h576v-211h-576z" />
<glyph unicode="&#x2013;" horiz-adv-x="1075" d="M113 512v211h850v-211h-850z" />
<glyph unicode="&#x2014;" horiz-adv-x="1572" d="M113 512v211h1349v-211h-1349z" />
<glyph unicode="&#x2018;" horiz-adv-x="555" d="M74 1000.5q0 95.5 66.5 187.5t176.5 147l170 -94q-158 -74 -190 -178q57 -10 97 -45t40 -95.5t-46 -103.5t-128 -43t-134 64.5t-52 160z" />
<glyph unicode="&#x2019;" horiz-adv-x="555" d="M59 868q158 80 191 181q-59 10 -99 44.5t-40 96t47 103.5t128 42t133 -64.5t52 -159.5t-66.5 -187.5t-177.5 -147.5z" />
<glyph unicode="&#x202f;" horiz-adv-x="374" />
<glyph unicode="&#x205f;" horiz-adv-x="467" />
<glyph unicode="&#x25fc;" horiz-adv-x="993" d="M0 0v993h993v-993h-993z" />
</font>
</defs>
</svg>
